萌动动漫论坛

 找回密码
 欢迎注册
搜索
查看: 746|回复: 2
收起左侧

[自抓精品] [自抓自扫][EAC][141022]セガ・ハード・ガールズ - Blooming!!/若い力 -SEGA HARD GIRLS MIX-[WAV+CUE+LOG+PNG]

[复制链接]

211

主题

20

回帖

4万

积分

用户组:管理员

ふみや音楽工房 工房歌词组歌词制作

UID
40852
节操
114514
资币
9849
萌点
191396
活跃
43589
贡献
15378
推广
9225
在线时间
387 小时
注册时间
1970-1-1
 楼主| 发表于 2023-3-4 20:50:39 | 显示全部楼层 |阅读模式

セガの歴代ハードが擬人化 ! ゆる系TVアニメ 「Hi☆sCool!セハガール」 EDテーマが発売決定 !

≪収録曲≫
01. Blooming!!
作詞 : うらん 作編曲 : 藤澤健至 (Team-MAX)

02. 若い力 -SEGA HARD GIRLS MIX-
作詞 : セガ社員 作曲 : 若草恵 編曲 : 藤澤健至 (Team-MAX)

03. Blooming!! (instrumental)

04. 若い力 -SEGA HARD GIRLS MIX- (instrumental)

≪歌唱≫
[Blooming!!]
ドリームキャスト ( ドリキャス ) : M・A・O
セガサターン ( サターン ) : 高橋未奈美
メガドライブ ( メガドラ ) : 井澤詩織
セガ・マークIII ( マーくん ) : 田中真奈美
マスターシステム ( テムテム ) : 髙山ゆう子
ビジュアルメモリ ( めもりん ) : 上坂すみれ

[若い力 -SEGA HARD GIRLS MIX-]
SC-3000 ( シーさん ) : 相沢舞
SG-1000 ( せん ) : 芹澤優
SG-1000II ( せんつー ) : 大空直美
ゲームギア ( ムギ ) : 田中美海
ロボピッチャ ( ぴっちゃん ) : もものはるな

LOG:
  1. Exact Audio Copy V1.6 from 23. October 2020

  2. EAC extraction logfile from 4. March 2023, 17:40

  3. セガ・ハード・ガールズ / Blooming!!/若い力 -SEGA HARD GIRLS MIX-

  4. Used drive  : ASUS    BW-12D1S-U   Adapter: 1  ID: 0

  5. Read mode               : Secure
  6. Utilize accurate stream : Yes
  7. Defeat audio cache      : Yes
  8. Make use of C2 pointers : No

  9. Read offset correction                      : 667
  10. Overread into Lead-In and Lead-Out          : No
  11. Fill up missing offset samples with silence : Yes
  12. Delete leading and trailing silent blocks   : No
  13. Null samples used in CRC calculations       : Yes
  14. Used interface                              : Native Win32 interface for Win NT & 2000

  15. Used output format : Internal WAV Routines
  16. Sample format      : 44.100 Hz; 16 Bit; Stereo


  17. TOC of the extracted CD

  18.     Track |   Start  |  Length  | Start sector | End sector
  19.    ---------------------------------------------------------
  20.        1  |  0:00.00 |  3:31.60 |         0    |    15884  
  21.        2  |  3:31.60 |  4:18.37 |     15885    |    35271  
  22.        3  |  7:50.22 |  3:31.56 |     35272    |    51152  
  23.        4  | 11:22.03 |  4:15.29 |     51153    |    70306  


  24. Range status and errors

  25. Selected range

  26.     Filename C:\Users\Administrator\Desktop\セガ・ハード・ガールズ - Blooming!!/若い力 -SEGA HARD GIRLS MIX-.wav

  27.     Peak level 98.8 %
  28.     Extraction speed 5.8 X
  29.     Range quality 100.0 %
  30.     Test CRC B3C4AE85
  31.     Copy CRC B3C4AE85
  32.     Copy OK

  33. No errors occurred


  34. AccurateRip summary

  35. Track  1  accurately ripped (confidence 7)  [DF021FD1]  (AR v2)
  36. Track  2  accurately ripped (confidence 7)  [CC171840]  (AR v2)
  37. Track  3  accurately ripped (confidence 7)  [1D0C37A3]  (AR v2)
  38. Track  4  accurately ripped (confidence 7)  [EB2DEBB4]  (AR v2)

  39. All tracks accurately ripped

  40. End of status report

  41. ---- CUETools DB Plugin V2.1.6

  42. [CTDB TOCID: xcg23RfpzdKhRAt4pegpGl20wn4-] found
  43. Submit result: xcg23RfpzdKhRAt4pegpGl20wn4- has been confirmed
  44. Track | CTDB Status
  45. 1   | (19/19) Accurately ripped
  46. 2   | (19/19) Accurately ripped
  47. 3   | (19/19) Accurately ripped
  48. 4   | (19/19) Accurately ripped


  49. ==== Log checksum 0EBBBB066D8955BBB789206DEE67D78860FF3144CA4690B7976FC236AD768AC7 ====
复制代码

歌词:http://www.acggirl.moe/forum.php?mod=viewthread&tid=182082
载点:
购买主题 本主题需向作者支付 30 资币 才能浏览

6803

主题

1万

回帖

8万

积分

用户组:管理员

AI机器人客服——新人向导、问题咨询、管理投诉。

UID
4
节操
1
资币
22000
萌点
4127
活跃
60424
贡献
14809
推广
8746
在线时间
7811 小时
注册时间
2002-2-2
发表于 2023-3-11 19:25:48 | 显示全部楼层
有没有阿里云盘,现在好多电影网站都用这个,下载承诺不限速。
如果链接失效请直接PM楼主或者到指定帖子内统一反馈,不要在楼下回复。使用论坛的过程中有什么不懂的地方也可以问我,或者在指定的版块发帖求助。

211

主题

20

回帖

4万

积分

用户组:管理员

ふみや音楽工房 工房歌词组歌词制作

UID
40852
节操
114514
资币
9849
萌点
191396
活跃
43589
贡献
15378
推广
9225
在线时间
387 小时
注册时间
1970-1-1
 楼主| 发表于 2023-3-12 13:48:27 | 显示全部楼层
书生 发表于 2023-3-11 19:25
有没有阿里云盘,现在好多电影网站都用这个,下载承诺不限速。

没,天翼云盘倒是有,只不过又是要客户端又是要登录的有点麻烦,虽然不限速
您需要登录后才可以回帖 登录 | 欢迎注册

本版积分规则

手机版|萌动动漫论坛

JS of wanmeiff.com and vcpic.com Please keep this copyright information, respect of, thank you!JS of wanmeiff.com and vcpic.com Please keep this copyright information, respect of, thank you!

GMT+8, 2024-5-30 10:47 , Processed in 0.249552 second(s), 36 queries .

Powered by Discuz! X3.4 Designed by 999test.cn

© 2001-2013 Comsenz Inc.

快速回复 返回顶部 返回列表