萌动动漫论坛

 找回密码
 欢迎注册
搜索
查看: 592|回复: 2
收起左侧

[自抓精品] [自购自抓][EAC][070727]江若琳 - Innocent[WAV+CUE+LOG+ISO]

[复制链接]

211

主题

20

回帖

4万

积分

用户组:管理员

ふみや音楽工房 工房歌词组歌词制作

UID
40852
节操
114514
资币
9849
萌点
191396
活跃
43589
贡献
15378
推广
9225
在线时间
387 小时
注册时间
1970-1-1
 楼主| 发表于 2023-4-27 00:17:51 | 显示全部楼层 |阅读模式

產品名稱:Innocent (CD+DVD)
歌手名稱:江若琳 (歌手)
推出日期:2007-07-27
語言:粵語
製作來源地:中國香港
光碟格式:鐳射唱片
出品商:寰宇鐳射 (HK)

寰宇新人江若琳(Elanne)出道以來,一直主攻電視劇集,包括《伙頭智多星》、《詠春》和《阿有正傳》,2007年她將在影壇中大展拳腳,擔當演出陳木勝的動作警匪片《男兒本色》及彭氏兄弟最新驚慄電影《嚇死你》。在2007年夏天, Elanne以充滿少女感覺的造型,率先派台兩首新歌—抒情廣東歌「大眼睛」和「撒嬌」,備受注目。
江若琳在新專輯裡有精彩的演繹,抒發著不同的都市戀愛故事,與歌迷們體會暗戀、初戀、熱戀和失戀的感受。全城失戀歌「傷情路」更是主打之作,Elanne在「傷情路」MV劇場版更深情演繹,想知道更多,隨碟附送的DVD額外輯錄了更多主打歌MV及幕後直擊。《Innocent》專輯贈送江若琳的深情畫冊和貼紙相。

収録曲:
CD
1. 暗戀篇 - 大眼睛
2. 初戀篇 - 撒嬌
3. 熱戀篇 - 傻豬
4. 失戀篇 - 傷情路
5. 夢境日和 (Bonus Track)

DVD
1. 傷情路 MV劇場版
2. 傻豬MV
3. 傻豬MV 幕後直擊
4. 撒嬌MV
5. 大眼睛MV

log:
  1. Exact Audio Copy V1.6 from 23. October 2020

  2. EAC extraction logfile from 26. April 2023, 19:46

  3. 江若琳 / Innocent

  4. Used drive  : ASUS    BW-12D1S-U   Adapter: 1  ID: 0

  5. Read mode               : Secure
  6. Utilize accurate stream : Yes
  7. Defeat audio cache      : Yes
  8. Make use of C2 pointers : No

  9. Read offset correction                      : 667
  10. Overread into Lead-In and Lead-Out          : No
  11. Fill up missing offset samples with silence : Yes
  12. Delete leading and trailing silent blocks   : No
  13. Null samples used in CRC calculations       : Yes
  14. Used interface                              : Native Win32 interface for Win NT & 2000

  15. Used output format : Internal WAV Routines
  16. Sample format      : 44.100 Hz; 16 Bit; Stereo


  17. TOC of the extracted CD

  18.      Track |   Start  |  Length  | Start sector | End sector
  19.     ---------------------------------------------------------
  20.         1  |  0:00.00 |  3:48.20 |         0    |    17119   
  21.         2  |  3:48.20 |  4:15.51 |     17120    |    36295   
  22.         3  |  8:03.71 |  3:40.13 |     36296    |    52808   
  23.         4  | 11:44.09 |  3:18.50 |     52809    |    67708   
  24.         5  | 15:02.59 |  4:05.18 |     67709    |    86101   


  25. Range status and errors

  26. Selected range

  27.      Filename C:\Users\Administrator\Desktop\江若琳 - Innocent.wav

  28.      Peak level 100.0 %
  29.      Extraction speed 6.1 X
  30.      Range quality 100.0 %
  31.      Test CRC E9E5B8AC
  32.      Copy CRC E9E5B8AC
  33.      Copy OK

  34. No errors occurred


  35. AccurateRip summary

  36. Track  1  accurately ripped (confidence 1)  [AC0B6C00]  (AR v1)
  37. Track  2  accurately ripped (confidence 1)  [937B7364]  (AR v1)
  38. Track  3  accurately ripped (confidence 1)  [A06E2F12]  (AR v1)
  39. Track  4  accurately ripped (confidence 1)  [CA136CAA]  (AR v1)
  40. Track  5  accurately ripped (confidence 1)  [D4A81B62]  (AR v1)

  41. All tracks accurately ripped

  42. End of status report

  43. ---- CUETools DB Plugin V2.1.6

  44. [CTDB TOCID: zX7rN0t1q7NuDGt1reOrjVWq4Ss-] found
  45. Submit result: zX7rN0t1q7NuDGt1reOrjVWq4Ss- has been confirmed
  46. Track | CTDB Status
  47.   1   | (7/7) Accurately ripped
  48.   2   | (7/7) Accurately ripped
  49.   3   | (7/7) Accurately ripped
  50.   4   | (7/7) Accurately ripped
  51.   5   | (7/7) Accurately ripped


  52. ==== Log checksum 2651CA9632C3A6E5B24988DCDD7E95EF31260941D1DA50729D69DAA4B0361FE1 ====
复制代码


载点:资源禁转,有需要请从本帖购买
购买主题 已有 1 人购买  本主题需向作者支付 50 资币 才能浏览

6803

主题

1万

回帖

8万

积分

用户组:管理员

AI机器人客服——新人向导、问题咨询、管理投诉。

UID
4
节操
1
资币
22000
萌点
4127
活跃
60424
贡献
14809
推广
8746
在线时间
7811 小时
注册时间
2002-2-2
发表于 2023-4-29 20:32:04 | 显示全部楼层
不弄个阿里云盘吗,不限速。百度云要油猴脚本才得
如果链接失效请直接PM楼主或者到指定帖子内统一反馈,不要在楼下回复。使用论坛的过程中有什么不懂的地方也可以问我,或者在指定的版块发帖求助。

211

主题

20

回帖

4万

积分

用户组:管理员

ふみや音楽工房 工房歌词组歌词制作

UID
40852
节操
114514
资币
9849
萌点
191396
活跃
43589
贡献
15378
推广
9225
在线时间
387 小时
注册时间
1970-1-1
 楼主| 发表于 2023-4-30 22:46:46 | 显示全部楼层
书生 发表于 2023-4-29 20:32
不弄个阿里云盘吗,不限速。百度云要油猴脚本才得

没有手机,现在这个百度载点也是和别人合租的
您需要登录后才可以回帖 登录 | 欢迎注册

本版积分规则

手机版|萌动动漫论坛

JS of wanmeiff.com and vcpic.com Please keep this copyright information, respect of, thank you!JS of wanmeiff.com and vcpic.com Please keep this copyright information, respect of, thank you!

GMT+8, 2024-5-30 12:30 , Processed in 0.219375 second(s), 36 queries .

Powered by Discuz! X3.4 Designed by 999test.cn

© 2001-2013 Comsenz Inc.

快速回复 返回顶部 返回列表