萌动动漫论坛

 找回密码
 欢迎注册
搜索
查看: 696|回复: 2
收起左侧

[自抓精品] [BD][EAC][170906]Luce Twinkle Wink☆ - Fight on![WAV+CUE+LOG+BK+ISO]

[复制链接]

1132

主题

3223

帖子

3万

积分

用户组:萌伴终生

科学字幕组招新群150159540,欢迎参组加群咨询

节操
5271
资币
8283
萌点
71569
活跃
20008
贡献
9952
推广
8227
在线时间
2811 小时
注册时间
2013-7-26

最佳新人活跃会员热心会员推广达人宣传达人灌水之王突出贡献优秀版主荣誉管理论坛元老萌动一周年庆勋章我爱美少女我的妹妹妮可栗山未来小埋若菜羽衣若狭悠里海老名白雪公主左苍慈

发表于 2017-9-22 10:46:11 | 显示全部楼层 |阅读模式




CD (2017/9/6)
ディスク枚数: 2
フォーマット: Limited Edition
レーベル: NBCユニバーサルエンターテイメントジャパン
収録時間: 20 分
ASIN: B072K4YMHH

人気上昇中のアイドルグループLuce Twinkle Wink☆のニューシングルは、
2017年7月より放送開始予定のTVアニメ「ゲーマーズ! 」のエンディングテーマ

【Amazon.co.jp限定】
ブロマイド付き
※特典は数に限りがございます。なくなり次第終了となります。

初回限定盤は、Luce Twinkle Wink☆が出演するMV、MVダンスver.、MVメイキング、TVSPOTを収録したDVD付

曲目:
01. Fight on!
作詞:KOTOKO 作曲編曲:ツキダタダシ
02. 恋のprologue*
作詞:黒崎真音 作曲編曲:大久保薫
03. Fight on! (TV Size)
04. Fight on! (Instrumental)
05. 恋のprologue*(Instrumental)

【初回限定盤特典】
<特典DVD>
●「Fight on! 」MV
●「Fight on! 」MV –Dance ver.-
● MV Making
● SPOT[発売前/発売中/宇佐美幸乃ver./深沢紗希ver./錦織めぐみver./桧垣果穂ver./板山紗織ver.]
● TVアニメ『ゲーマーズ! 』ノンクレジットエンディング

试听:


log:
  1. Exact Audio Copy V1.3 from 2. September 2016

  2. EAC extraction logfile from 15. September 2017, 14:37

  3. Luce Twincle Wink☆ / Fight on!

  4. Used drive  : ASUS    BW-12D1S-U   Adapter: 1  ID: 0

  5. Read mode               : Secure
  6. Utilize accurate stream : Yes
  7. Defeat audio cache      : Yes
  8. Make use of C2 pointers : No

  9. Read offset correction                      : 667
  10. Overread into Lead-In and Lead-Out          : No
  11. Fill up missing offset samples with silence : Yes
  12. Delete leading and trailing silent blocks   : No
  13. Null samples used in CRC calculations       : Yes
  14. Used interface                              : Native Win32 interface for Win NT & 2000

  15. Used output format : Internal WAV Routines
  16. Sample format      : 44.100 Hz; 16 Bit; Stereo


  17. TOC of the extracted CD

  18.      Track |   Start  |  Length  | Start sector | End sector
  19.     ---------------------------------------------------------
  20.         1  |  0:00.00 |  3:53.02 |         0    |    17476   
  21.         2  |  3:53.02 |  5:33.13 |     17477    |    42464   
  22.         3  |  9:26.15 |  1:34.44 |     42465    |    49558   
  23.         4  | 11:00.59 |  3:52.29 |     49559    |    66987   
  24.         5  | 14:53.13 |  5:32.40 |     66988    |    91927   


  25. Range status and errors

  26. Selected range

  27.      Filename C:\Users\Administrator\Desktop\Luce Twincle Wink☆ - Fight on!.wav

  28.      Peak level 99.9 %
  29.      Extraction speed 6.1 X
  30.      Range quality 100.0 %
  31.      Test CRC ED017561
  32.      Copy CRC ED017561
  33.      Copy OK

  34. No errors occurred


  35. AccurateRip summary

  36. Track  1  accurately ripped (confidence 3)  [98493989]  (AR v2)
  37. Track  2  accurately ripped (confidence 3)  [666CA96E]  (AR v2)
  38. Track  3  accurately ripped (confidence 3)  [F6826287]  (AR v2)
  39. Track  4  accurately ripped (confidence 3)  [5E259E28]  (AR v2)
  40. Track  5  accurately ripped (confidence 3)  [59F12F54]  (AR v2)

  41. All tracks accurately ripped

  42. End of status report

  43. ---- CUETools DB Plugin V2.1.6

  44. [CTDB TOCID: ZBiWpK7oIHrzfBV2jX6qcXalL4c-] found
  45. Submit result: already submitted
  46. Track | CTDB Status
  47.   1   | (35/35) Accurately ripped
  48.   2   | (35/35) Accurately ripped
  49.   3   | (35/35) Accurately ripped
  50.   4   | (35/35) Accurately ripped
  51.   5   | (35/35) Accurately ripped


  52. ==== Log checksum DE02B84719E737527FEFDF7E290F6DFD67E4FC2F0597454D935131990607333C ====
复制代码


下载地址:
包内有高清扫描大图(BK)
注意:转载前必须先征得同意
购买主题 已有 3 人购买  本主题需向作者支付 15 资币 才能浏览
科学国字幕组招新!!

2

主题

0

帖子

476

积分

用户组:萌情滋生

节操
0
资币
260
萌点
-48541
活跃
569
贡献
6
推广
0
在线时间
183 小时
注册时间
2014-12-2

小埋妮可

发表于 2017-9-22 21:57:25 | 显示全部楼层
谢谢分享 ,舞蹈版看上去还不错 。

31

主题

602

帖子

2996

积分

用户组:萌然大悟

Level5 风暴指挥官

节操
26
资币
552
萌点
11432
活跃
2935
贡献
262
推广
2
在线时间
631 小时
注册时间
2016-6-28

最佳新人小埋我的妹妹妮可我爱美少女海老名若菜羽衣若狭悠里白雪公主左苍慈栗山未来灌水之王活跃会员

发表于 2018-8-5 22:51:35 | 显示全部楼层
看一下2333
立梦之巅,华音伊奏
您需要登录后才可以回帖 登录 | 欢迎注册

本版积分规则


手机版|萌动动漫论坛

JS of wanmeiff.com and vcpic.com Please keep this copyright information, respect of, thank you!JS of wanmeiff.com and vcpic.com Please keep this copyright information, respect of, thank you!

GMT+8, 2018-9-20 19:42 , Processed in 0.149276 second(s), 42 queries .

Powered by Discuz! X3.3 Designed by 999test.cn

© 2001-2013 Comsenz Inc.

快速回复 返回顶部 返回列表