萌动动漫

 找回密码
 欢迎注册
搜索
查看: 584|回复: 1
收起左侧

[自抓精品] [自抓自扫][EAC][141112]Various Artists - Sound Novel[WAV+CUE+LOG+BK]

[复制链接]

230

主题

24

回帖

5万

积分

用户组:管理员

ふみや音楽工房 工房歌词组歌词制作

UID
1
节操
114514
资币
9897
萌点
191782
活跃
43749
贡献
25427
推广
9225
在线时间
1959 小时
注册时间
1970-1-1
 楼主| 发表于 2023-5-26 07:24:09 | 显示全部楼层 |阅读模式

フォーマット CD
構成数 1
国内/輸入 国内
パッケージ仕様 紙ジャケット
発売日 2014年11月12日
規格品番 SCMD-100
レーベル Fauvisme
SKU 4562368532938

世界に通じるクオリティーをコンセプトに新レーベルが発足。
日本最高峰のメロウビーツが奏でる、斬新で心地の良いスタイリッシュなサウンドばかりを集めたコンピレーション・アルバムが遂に誕生!
90年代からDJ・トラックメイカーとして独自のメロウビーツを作り上げたNujabes、Avicii の「Wake Me Up」にゲスト参加をして一躍有名になった Aloe Blacc、
さらに、DJ Ryow、Shing02、Cradle Orchestra 、Anan Ryokoなど豪華メンバーによる楽曲を収録!
新録も多数収録を予定しており、ここでしか聞けない唯一無二の1枚! !
“捨て曲一切なし! "メロウなナンバーに誰もが酔いしれ、聴くもの全員を虜にするこの世界観は、この冬話題必須の作品! !

収録曲:
1.Get Inside Your Heart - Ayumi Kato remix / Kenichiro Nishihara
2.Run Faster feat. Don Cerino / Tranquil
3.Flowers feat. Shing02 / Cradle Orchestra
4.Another Reflection / Nujabes
5.Love theme from Spartacus / Guitarise
6.Still a rose / Bee
7.Komorebi / m-taku
8.Blue Sky feat. Aloe Blacc - Khrono remix / Anan Ryoko
9.Smile / DJ Ryow a.k.a. Smooth Current
10.Talk it out feat. Nieve & Jean Curley / Cradle Orchestra
11.Sakura Mentos / Kenmochi Hidefumi
12.Life is good feat. Mos Def / DJ Deckstream
13.Needle In the Groove feat. Substantial / DJ Ryow a.k.a. Smooth Current
14.F.I.L.O. feat. Shing02 / Nujabes
15.Sunrise feat. Nieve / Raujika

log:
  1. Exact Audio Copy V1.6 from 23. October 2020

  2. EAC extraction logfile from 26. May 2023, 4:58

  3. FAUVISME PRESENTS / Sound Novel

  4. Used drive  : ASUS    BW-12D1S-U   Adapter: 1  ID: 0

  5. Read mode               : Secure
  6. Utilize accurate stream : Yes
  7. Defeat audio cache      : Yes
  8. Make use of C2 pointers : No

  9. Read offset correction                      : 667
  10. Overread into Lead-In and Lead-Out          : No
  11. Fill up missing offset samples with silence : Yes
  12. Delete leading and trailing silent blocks   : No
  13. Null samples used in CRC calculations       : Yes
  14. Used interface                              : Native Win32 interface for Win NT & 2000

  15. Used output format : Internal WAV Routines
  16. Sample format      : 44.100 Hz; 16 Bit; Stereo


  17. TOC of the extracted CD

  18.      Track |   Start  |  Length  | Start sector | End sector
  19.     ---------------------------------------------------------
  20.         1  |  0:00.00 |  4:12.61 |         0    |    18960   
  21.         2  |  4:12.61 |  4:37.07 |     18961    |    39742   
  22.         3  |  8:49.68 |  5:27.55 |     39743    |    64322   
  23.         4  | 14:17.48 |  3:41.45 |     64323    |    80942   
  24.         5  | 17:59.18 |  4:12.35 |     80943    |    99877   
  25.         6  | 22:11.53 |  6:10.51 |     99878    |   127678   
  26.         7  | 28:22.29 |  3:31.74 |    127679    |   143577   
  27.         8  | 31:54.28 |  5:15.18 |    143578    |   167220   
  28.         9  | 37:09.46 |  6:08.03 |    167221    |   194823   
  29.        10  | 43:17.49 |  4:48.29 |    194824    |   216452   
  30.        11  | 48:06.03 |  4:32.54 |    216453    |   236906   
  31.        12  | 52:38.57 |  4:15.00 |    236907    |   256031   
  32.        13  | 56:53.57 |  4:43.35 |    256032    |   277291   
  33.        14  | 61:37.17 |  3:30.28 |    277292    |   293069   
  34.        15  | 65:07.45 |  5:12.35 |    293070    |   316504   


  35. Range status and errors

  36. Selected range

  37.      Filename C:\Users\Administrator\Desktop\FAUVISME PRESENTS - Sound Novel.wav

  38.      Peak level 98.6 %
  39.      Extraction speed 8.4 X
  40.      Range quality 99.9 %
  41.      Test CRC 83372635
  42.      Copy CRC 83372635
  43.      Copy OK

  44. No errors occurred


  45. AccurateRip summary

  46. Track  1  accurately ripped (confidence 2)  [F08BA730]  (AR v2)
  47. Track  2  accurately ripped (confidence 2)  [42272763]  (AR v2)
  48. Track  3  accurately ripped (confidence 2)  [0DE442A8]  (AR v2)
  49. Track  4  accurately ripped (confidence 2)  [04D95769]  (AR v2)
  50. Track  5  accurately ripped (confidence 2)  [5FE6E5B2]  (AR v2)
  51. Track  6  accurately ripped (confidence 2)  [5BC8F5E7]  (AR v2)
  52. Track  7  accurately ripped (confidence 2)  [1E411430]  (AR v2)
  53. Track  8  accurately ripped (confidence 2)  [5BA56A8F]  (AR v2)
  54. Track  9  accurately ripped (confidence 2)  [9D1C4E02]  (AR v2)
  55. Track 10  accurately ripped (confidence 2)  [196FA9EF]  (AR v2)
  56. Track 11  accurately ripped (confidence 2)  [19498A44]  (AR v2)
  57. Track 12  accurately ripped (confidence 2)  [9419AA8D]  (AR v2)
  58. Track 13  accurately ripped (confidence 2)  [C7FD4E84]  (AR v2)
  59. Track 14  accurately ripped (confidence 2)  [4D918B43]  (AR v2)
  60. Track 15  accurately ripped (confidence 2)  [29B68618]  (AR v2)

  61. All tracks accurately ripped

  62. End of status report

  63. ---- CUETools DB Plugin V2.1.6

  64. [CTDB TOCID: xixQgBnUgLEjH7xgOiQKhlRrCAc-] found
  65. Submit result: xixQgBnUgLEjH7xgOiQKhlRrCAc- has been confirmed
  66. Track | CTDB Status
  67.   1   | (15/15) Accurately ripped
  68.   2   | (15/15) Accurately ripped
  69.   3   | (15/15) Accurately ripped
  70.   4   | (15/15) Accurately ripped
  71.   5   | (15/15) Accurately ripped
  72.   6   | (15/15) Accurately ripped
  73.   7   | (15/15) Accurately ripped
  74.   8   | (15/15) Accurately ripped
  75.   9   | (15/15) Accurately ripped
  76. 10   | (15/15) Accurately ripped
  77. 11   | (15/15) Accurately ripped
  78. 12   | (15/15) Accurately ripped
  79. 13   | (15/15) Accurately ripped
  80. 14   | (14/15) Accurately ripped
  81. 15   | (15/15) Accurately ripped


  82. ==== Log checksum 03FE5DD90E3C6FC409A69749C0EB74979F4D02C3787FCE1777D5FE8386EA46F5 ====
复制代码


载点:资源禁转,有需要请从本帖购买
购买主题 本主题需向作者支付 50 资币 才能浏览

6807

主题

1万

回帖

8万

积分

用户组:管理员

论坛客服:新人向导、问题咨询、管理投诉。

UID
4
节操
1
资币
22034
萌点
4176
活跃
60516
贡献
14831
推广
8746
在线时间
7834 小时
注册时间
2002-2-2
发表于 2023-5-27 10:14:20 | 显示全部楼层
怎么全是英文歌名
如果链接失效请直接PM楼主或者到指定帖子内统一反馈,不要在楼下回复。使用论坛的过程中有什么不懂的地方也可以问我,或者在指定的版块发帖求助。
您需要登录后才可以回帖 登录 | 欢迎注册

本版积分规则

手机版|萌动动漫

GMT+8, 2024-6-24 02:34 , Processed in 0.020435 second(s), 28 queries .

Powered by Discuz! X3.4 Designed by 999test.cn

© 2001-2013 Comsenz Inc.

快速回复 返回顶部 返回列表